论坛风格切换
   
 
  • 7126阅读
  • 87回复

[電視劇]关于恶女(1280x720)已補回外掛字幕 [复制链接]

上一主题 下一主题
oka

发帖
293
金錢
2524
聲望
68
貢獻
31
交易币
0
同盟币
0
只看楼主 倒序阅读 0 发表于: 2012-05-07
— 本帖被 新道成 从 附件上傳區 移动到本区(2012-05-07) —


[120430][TBSd]???特別企?「?女????」.mp4
   General
      Complete name : [TBSd]???特別企?「?女????」.mp4
      Format : MPEG-4
      Format profile : Base Media / Version 2
      Codec ID : mp42
      File size : 1.82 GiB
      Duration : 2h 2mn
      Overall bit rate : 2 130 Kbps
      Writing application : TMPGEnc Video Mastering Works 5 Version. 5.2.3.66
   Video #2
      ID : 2
      Format : AVC
      Format/Info : Advanced Video Codec
      Format profile : [email protected]
      Format settings, CABAC : Yes
      Format settings, ReFrames : 4 frames
      Codec ID : avc1
      Codec ID/Info : Advanced Video Coding
      Duration : 2h 2mn
      Bit rate mode : Variable
      Bit rate : 2 000 Kbps
      Maximum bit rate : 15.0 Mbps
      Width : 1 280 pixels
      Height : 720 pixels
      Display aspect ratio : 16:9
      Frame rate mode : Constant
      Frame rate : 29.970 fps
      Standard : NTSC
      Color space : YUV
      Chroma subsampling : 4:2:0
      Bit depth : 8 bits
      Scan type : Progressive
      Bits/(Pixel*Frame) : 0.072
      Stream size : 1.71 GiB (94%)
      Writing library : x264 core 118
      Encoding settings : cabac=1 / ref=4 / deblock=1:0:0 / analyse=0x3:0x113 / me=hex / subme=7 / psy=1 / psy_rd=1.00:0.00 / mixed_ref=1 / me_range=16 / chroma_me=1 / trellis=1 / 8x8dct=1 / cqm=2 / deadzone=21,11 / fast_pskip=1 / chroma_qp_offset=-4 / threads=18 / sliced_threads=0 / slices=1 / nr=0 / decimate=1 / interlaced=0 / bluray_compat=0 / constrained_intra=0 / bframes=3 / b_pyramid=0 / b_adapt=1 / b_bias=0 / direct=1 / weightb=1 / open_gop=0 / weightp=1 / keyint=250 / keyint_min=25 / scenecut=40 / intra_refresh=0 / rc_lookahead=40 / rc=2pass / mbtree=1 / bitrate=2000 / ratetol=1.0 / qcomp=0.60 / qpmin=5 / qpmax=69 / qpstep=4 / cplxblur=20.0 / qblur=0.5 / vbv_maxrate=15000 / vbv_bufsize=14991 / nal_hrd=vbr / ip_ratio=1.40 / aq=1:1.00
      Color primaries : BT.709-5, BT.1361, IEC 61966-2-4, SMPTE RP177
      Transfer characteristics : BT.709-5, BT.1361
      Matrix coefficients : BT.709-5, BT.1361, IEC 61966-2-4 709, SMPTE RP177
   Audio #1
      ID : 1
      Format : AAC
      Format/Info : Advanced Audio Codec
      Format profile : LC
      Codec ID : 40
      Duration : 2h 2mn
      Bit rate mode : Variable
      Bit rate : 125 Kbps
      Maximum bit rate : 576 Kbps
      Channel(s) : 2 channels
      Channel positions : Front: L R
      Sampling rate : 48.0 KHz
      Compression mode : Lossy
      Stream size : 110 MiB (6%)


本部分内容设定了隐藏,需要回复后才能看到


外掛字幕

http://115.com/file/c2a5kuhh#
關於惡女.srt

調整時間軸時發現share 的檔少了大約3分鐘

附件: 關於惡女.rar (33 K) 下载次数:88
评价一下你浏览此帖子的感受

精彩

感动

搞笑

开心

愤怒

无聊

灌水

发帖
4
金錢
4
聲望
0
貢獻
0
交易币
0
同盟币
0
只看该作者 1 发表于: 2012-05-07
感谢了,支持erika

发帖
280
金錢
1758
聲望
83
貢獻
0
交易币
0
同盟币
0
只看该作者 2 发表于: 2012-05-07
谢谢了哈,我们找人录的TS档,因为太大了,准备转成720的哩 ,没有想到你发了

不过2小时720才1.8G,会不会太缩了
不同的旅途遇到不同的人,走着见面分手的流程,遇见新的人时代表着拥抱全新的生活!
oka

发帖
293
金錢
2524
聲望
68
貢獻
31
交易币
0
同盟币
0
只看该作者 3 发表于: 2012-05-07
回 2楼(新道成) 的帖子
ts檔已有 14.2gb  這個是用share ex下的

发帖
280
金錢
1758
聲望
83
貢獻
0
交易币
0
同盟币
0
只看该作者 4 发表于: 2012-05-08
回 3楼(oka) 的帖子
,日本宅男好给力,居然录档上传了;我还以为你是从日菁那里拿的,然后自压成720的;
我们录的档,只剪泽尻的部分那TS档就7,8G了,所以还是用你这个档算了。。

我这里网速不行,我也想从SHARE EX找东西啊,看有没有我没有看过的档。。。。。。。。。。。。。
不同的旅途遇到不同的人,走着见面分手的流程,遇见新的人时代表着拥抱全新的生活!

发帖
28
金錢
529
聲望
0
貢獻
0
交易币
0
同盟币
0
只看该作者 5 发表于: 2012-05-08
哈哈!
谢谢分享!
oka

发帖
293
金錢
2524
聲望
68
貢獻
31
交易币
0
同盟币
0
只看该作者 6 发表于: 2012-05-08
回 4楼(新道成) 的帖子
新道成:哦[表情],日本宅男好给力,居然录档上传了;我还以为你是从日菁那里拿的,然后自压成720的;我们录的档,只剪泽尻的部分那TS档就7,8G了,所以还是用你这个档算了。。 我这里网速不行,我 .. (2012-05-08 00:59) 

SHARE EX很少泽尻的檔  只有寫真和電影dvd  我以前都分享過  不知你有沒有

发帖
280
金錢
1758
聲望
83
貢獻
0
交易币
0
同盟币
0
只看该作者 7 发表于: 2012-05-08
回 6楼(oka) 的帖子
哦,这样啊;我还以为会有番组档什么的


希望以后日本那边继续给力
不同的旅途遇到不同的人,走着见面分手的流程,遇见新的人时代表着拥抱全新的生活!

发帖
36
金錢
77
聲望
0
貢獻
0
交易币
0
同盟币
0
只看该作者 8 发表于: 2012-05-08
高清档神马的最喜欢了~~~~~截图截图~~~~

发帖
76
金錢
941
聲望
4
貢獻
0
交易币
0
同盟币
0
只看该作者 9 发表于: 2012-05-09
高清啊!!真的是太棒了
这个是无字的吧
快速回复
限1000 字节
 
上一个 下一个
      联系我们|无图版|手机浏览|清除Cookies 关于我们   联系我们